#TITLE:Beyond the Dark Sun by young_editer@hotmail.com;
#ARTIST:Wintersun;
#FILE:Wintersun (Beyond the Dark Sun).mp3;
#BPM:179.980;
#GAP:-100;
#SAMPLESTART:99.640;
#SAMPLELENGTH:12.000;
#CDTITLE:Nepex-Chart.bmp;
#FREEZE:1150.250=20.000,1150.750=20.000,1151.250=20.000,1151.750=20.000;
#CHANGEBPM:6.000=89.990,30.000=179.980,174.000=89.990,204.000=179.980,900.000=89.990,910.000=179.980,924.000=209.940,1068.000=209.900,1129.333=209.720,1148.000=210.800,1150.000=195.500,1154.000=209.800,1176.000=209.840,1178.000=209.700,1658.000=210.000;
#SINGLE:MANIAC:14:
{000000000000000000000000B!B0B0808080808080808080807!70703!30301!10106060}
{6060606060606060606060603!303040404040404040404040B!B0B03!303080000000}
(626040828262842!21)
(66666666666!638!8A4!41)
(888888888888888!8A)
(66666666666!638!8A44)
(444!416!692!2A4!476!638!8A4!41)
(66666666666!638!892!2A)
(444444444444444!41)
(88888888888!8A4!4188)
{800080008!8000A0006!600090002!2000A0004!400010008!8000A0008!800090004!40207060}
{2080208040208060802040208020806020802060802040208060802040208020}
{40802080402060208040806080206020806020806!60000000B00080002!2000A000}
(6666666666666!634!47)
(2!2A44444444444444)
(4!4188888888888!892!23)
(44444!472!238!894!418!8A6!63)
(4!4722222222222!2A6!69)
(4!4188888888888888)
(4!4166666666666!638!87)
(22222!218!894!418!894!418!8A)
9!99A!A0BBBB
(B0B0B0B0B0BA7!7037)
(3!3073B!B0A0A0A0A0A0)
{A0000000A0000000A0000000A0000000A0000000A00460003!3000000070003000}
(A!A0BA7!703030303030)
(3030303030373!3073)
(A!A0BA1!109090099090)
(0990909009913!3070)
(7073A!A0B0B0B0B0B0)
(B0B0B0B0B0BAB!B0AB)
(7!70373!307070707070)
(707070707073B!B0AB)
(9!90197!703030303030)
(303030303037A!A0BA)
(7!70373!307070707070)
(7070<34!4>28628268282)
(62867!8A6666666666)
(6!634!418!894444444!472!23)
(8!892!234!448282804646)
(4080262842862826)
(4!407!809!682222222222)
(9!86A!281!428888887262)
(8000646460002828)
(2000648462846284)
(60008!8A4444444444)
(4!4B8!8A4!4B2222222222)
(22222!216666666666)
(6!692!2A44444!418!8A6!694!41)
(8!8A6!638!872222222222)
(2!2A6!6B2!218888888888)
(88888!8A6666666666)
(6!638!8722222!2A4!448!8A6!63)
(8!872!2A6!662222222222)
(2!2A6!638!8A6666666!6B2!2A)
(6!638!876!664286408246)
80B!B00000
(<8B>282006284286420)
929438B2
9438B272
B2761816
727618B2
7618B276
167618B2
(9020862842862842)
(462826862842861!10)
1618B276
18B27618
16727618
B2761816
[100800B00200700200700604]
[080206080208060208040600]
[000A000007!700000700406020]
[804020806020802080400060]
[706000200080B02000600080]
[B02000800040902000800040]
[902080402080B02080406020]
[706080208020904000200080]
[108000600020902000200040]
[904000800020B02000408020]
[B02080402040902080402080]
[304020806020904060400080]
[002000600040002080206040]
`300000000000000080000000000000006000000000000000B!B00000000000000000000000000000000000000000000B00B!B00000000000000000000000000000000000000000000B00B!B00000000000000000000000000000002000000000000000'
`800000000000000020000000000000008000000000000000200000000000000080000000000000002000000000000000800000000000000020000000000000008000000000000000<61>00000000000800000000000200000000000800000000000'
(464648484848B000)
[804020802080602080402040]
[604060406020802080402040]
[602080208060802080208040]
[204060208040208060802040]
[208020602080208060804080]
[608020602040206020402060]
[208060208040204060208040]
[204060208020804020602080]
[602080204020802080602060]
[802040602080406020804020]
[406020804060208040208060]
[806080204020802080602060]
[402040602080208040208020]
[806020406020804020406020]
[802080406020608060208040]
[2060208060208020403!300000]
[<61>02080608020402060208060]
[208040204080406020802060]
[802080602080208040204060]
[208020602060206040604060]
[408040804060208040206020]
[806020802060802080602080]
[206080208040806080408060]
[208040204060208040204060]
[208020804020402040802080]
[402080204080208040208040]
[802080402080402040204080]
[208040602080206080208060]
[206040206020402080602080]
[406020802060802080602080]
[402040802080402080208020]
[804020408020802060802080]
[602080206040604060406040]
[608060806020804020406020]
[806080204020806040A!A00000]
000000A0
;
#SINGLE:SMANIAC:15:
{000000000000000000000000B!B0B0808080808080808080801!10103!30301!10106060}
{606060606060606060606060A!A0A0404040404040404040409!90903!303080000000}
(62604082826284A!A<81>)
(66666666667!7<81>B!B<61>9!9<83>)
(88888888888888B!B<61>)
(66666666667!7<81>9!9<83>44)
(4492B81838B292B2)
(66666666667!7<81>7!7<8B>3!3<83>)
(444444444444449!9<83>)
(8888888888B!B<61>7!7<81>88)
{80008000B0002000B000800030008000B000200090002000700060007!40208060}
{206080109!6020804080204020<B8!8>0204060204020901!20804060806080307!40208020}
{608020B07!80206020604020901!20806040806040A0B!60000000B00080001!1000<81>000}
(6666666666667!7<81>B!B<8B>)
(3!3<83>44444444444444)
(9!9<83>88888888881!1<61>A!A<83>)
(44443816A67292B2)
(B82222222222B!B<8B>3!3<83>)
(B!B<61>88888888888888)
(B!B<61>66666666667!7<81>9!9<8B>)
(222294A6727672B2)
9!99A!A0BBBB
(B0B0B0B0B0BA7!7037)
(3!3073B!B0A0A0A0A0A0)
{A0000000A0000000A0000000A0000000A0000000A00460003!3000000070003000}
(A!A0BA7!703030303030)
(3030303030373!3073)
(A!A0BA1!109090099090)
(0990909009913!3070)
(7073A!A0B0B0B0B0B0)
(B0B0B0B0B0BAB!B0AB)
(7!70373!307070707070)
(707070707073B!B0AB)
(9!90197!703030303030)
(303030303037A!A0BA)
(7!70373!307070707070)
(7070<34!4>28628268282)
(6286<4A!A><81>6666666666)
(7!7<81>B!B<61>7!7<8B>4444443816)
(A676108282804646)
(4080261842762816)
{1!10000000<19!9>0000006<8B!B>00080001000200020002000200020002000200020002000}
(<67!7>B<81!1>7<2B!B>38888887262)
(8000646460002828)
(2000648462846284)
(60009!9<83>4444444444)
(A!A<83>7!7<81>7!7<8B>2222222222)
(22229!9<8B>6666666666)
(1!1<81>3!3<83>44449272B8B2)
(72B2942222222222)
(B!B<8B>3!3<61>9!9<8B>8888888888)
(8888B!B<61>6666666666)
(7!7<81>9!9<8B>2222B81072B2)
(9438B02222222222)
(B!B<8B>B!B<61>7!7<81>666666A438)
(B294304286408246)
80B!B00000
(<8B>282006284286420)
929438B2
9438B272
B2761816
727618B2
7618B276
167618B2
(9020862842862842)
(462826862842861!10)
1618B276
18B27618
16727618
B2761816
[100800B00200700200700604]
[080206080208060208040600]
[000A000007!700000700406020]
[804020806020802080400060]
[706000200080B02000600080]
[B02000800040902000800040]
[902080402080B02080406020]
[706080208020904000200080]
[108000600020902000200040]
[904000800020B02000408020]
[B02080402040902080402080]
[304020806020904060400080]
[002000600040002080206040]
`300000000000000080000000000000006000000000000000B!B00000000000000000000000000000000000000000000B00B!B00000000000000000000000000000000000000000000B00B!B00000000000000000000000000000002000000000000000'
`800000000000000020000000000000008000000000000000200000000000000080000000000000002000000000000000800000000000000020000000000000008000000000000000<61>00000000000800000000000200000000000800000000000'
(464648484848B000)
[904020802080B02080402040]
[304060406020902080402040]
[902080208060702080208040]
[A04060208040308060802040]
[308020602080308060804080]
[B08020602040A06020402060]
[108060208040A04060208040]
[A04060208020904020602080]
[B02080204020702080602060]
[702040602080106020804020]
[706020804060108040208060]
[706080204020702080602060]
[702040602080308040208020]
[706020406020904020406020]
[802080406020608060208040]
[2060208060208020403!300000]
[<19>02080608020B02060208060]
[108040204080106020802060]
[702080602080308040204060]
[108020602060A06040604060]
[108040804060108040206020]
[706020802060702080602080]
[106080208040A06080408060]
[108040204060108040204060]
[108020804020702040802080]
[B02080204080308040208040]
[902080402080B02040204080]
[308040602080106080208060]
[A06040206020702080602080]
[106020802060702080602080]
[B02040802080B02080208020]
[904020408020702060802080]
[B02080206040304060406040]
[308060806020904020406020]
[806080204020806040A!A00000]
000000A0
;
